请选择 进入手机版 | 继续访问电脑版

【ape】战斧 - 逆行【百度盘】

[复制链接]



  1. Exact Audio Copy V1.3 from 2. September 2016

  2. EAC 抓取日志文件从5. 八月 2019, 20:01

  3. 未知艺术家 / 未知标题

  4. 使用驱动器  :HL-DT-STDVD+-RW GHB0N   Adapter: 1  ID: 0

  5. 读取模式      : 可靠Secure
  6. 使用精确流     : 是
  7. 清空音频缓存    : 是
  8. 使用 C2 指示器 : 否

  9. 读取偏移校正:               : 6
  10. 读取 Lead-In 和 Lead-Out : 否
  11. 用静音填充抓取中丢失偏移的采样       : 是
  12. 去除首尾静音块               : 否
  13. 在CRC 计算中使用了空样本       : 是
  14. 已用接口                  : Win NT 及 2000 本地 Win32 接口

  15. 所用输出模式: : 内部 WAV 函数
  16. 样本格式    : 44.100 Hz; 16 Bit; 立体声


  17. 已抓取 CD 的 TOC

  18.      音轨 |    起始    |    长度    |  起始扇区  |  结束扇区  
  19.     --------------------------------------------
  20.       1 |  0:00.00 |  5:37.24 |      0 |  25298
  21.       2 |  5:37.24 |  6:37.62 |  25299 |  55135
  22.       3 | 12:15.11 |  4:30.12 |  55136 |  75397
  23.       4 | 16:45.23 |  5:52.10 |  75398 | 101807
  24.       5 | 22:37.33 |  4:08.00 | 101808 | 120407
  25.       6 | 26:45.33 |  5:44.42 | 120408 | 146249


  26. 范围状态及错误

  27. 已选择范围

  28.      文件名 G:\战斧 - 逆行.wav

  29.      峰值电平 98.9 %
  30.      抓取速度 1.5 X
  31.      范围质量 100.0 %
  32.      复制 CRC 177F9CE6
  33.      复制成功

  34. 没有错误发生


  35. AccurateRip 摘要

  36. 音轨  1  在数据库中不存在
  37. 音轨  2  在数据库中不存在
  38. 音轨  3  在数据库中不存在
  39. 音轨  4  在数据库中不存在
  40. 音轨  5  在数据库中不存在
  41. 音轨  6  在数据库中不存在

  42. 没有任何音轨在 AccurateRip 数据库中有记录

  43. 状态报告结尾

  44. ---- CUETools DB Plugin V2.1.6

  45. [CTDB TOCID: iWmZOlfSu0cFUZi5mwhH9bVgW9E-] found
  46. Submit result: iWmZOlfSu0cFUZi5mwhH9bVgW9E- has been confirmed
  47. Track | CTDB Status
  48.   1   | (1/1) Accurately ripped
  49.   2   | (1/1) Accurately ripped
  50.   3   | (1/1) Accurately ripped
  51.   4   | (1/1) Accurately ripped
  52.   5   | (1/1) Accurately ripped
  53.   6   | (1/1) Accurately ripped

复制代码

链接:https://pan.baidu.com/s/1o0hCnCIBiPhvXH91niV15g   提取码:n2dx
密码:

本帖子中包含更多资源

您需要 登录 才可以下载或查看,没有帐号?立即注册

x
回复

使用道具 举报


感谢分享,辛苦辛苦
回复

使用道具 举报

这张专辑好听啊!
回复

使用道具 举报

太贵了!不容已吧
回复

使用道具 举报

返回列表
您需要登录后才可以回帖 登录 | 立即注册

本版积分规则

快速回复 返回顶部 返回列表