请选择 进入手机版 | 继续访问电脑版

【ape】大军 - 真爱【百度盘】

[复制链接]
本帖最后由 金属虫子 于 2020-4-27 10:51 编辑




  1. Exact Audio Copy V1.3 from 2. September 2016

  2. EAC 抓取日志文件从14. 九月 2019, 16:34

  3. 未知艺术家 / 未知标题

  4. 使用驱动器  :HL-DT-STDVD+-RW GHB0N   Adapter: 1  ID: 0

  5. 读取模式      : 可靠Secure
  6. 使用精确流     : 是
  7. 清空音频缓存    : 是
  8. 使用 C2 指示器 : 否

  9. 读取偏移校正:               : 6
  10. 读取 Lead-In 和 Lead-Out : 否
  11. 用静音填充抓取中丢失偏移的采样       : 是
  12. 去除首尾静音块               : 否
  13. 在CRC 计算中使用了空样本       : 是
  14. 已用接口                  : Win NT 及 2000 本地 Win32 接口

  15. 所用输出模式: : 内部 WAV 函数
  16. 样本格式    : 44.100 Hz; 16 Bit; 立体声


  17. 已抓取 CD 的 TOC

  18.      音轨 |    起始    |    长度    |  起始扇区  |  结束扇区  
  19.     --------------------------------------------
  20.       1 |  0:00.00 |  4:01.19 |      0 |  18093
  21.       2 |  4:01.19 |  5:48.47 |  18094 |  44240
  22.       3 |  9:49.66 |  2:59.27 |  44241 |  57692
  23.       4 | 12:49.18 |  6:06.23 |  57693 |  85165
  24.       5 | 18:55.41 |  4:02.39 |  85166 | 103354
  25.       6 | 22:58.05 |  3:48.47 | 103355 | 120501
  26.       7 | 26:46.52 |  3:41.03 | 120502 | 137079
  27.       8 | 30:27.55 |  5:42.23 | 137080 | 162752
  28.       9 | 36:10.03 |  4:20.15 | 162753 | 182267
  29.      10 | 40:30.18 |  3:52.31 | 182268 | 199698


  30. 范围状态及错误

  31. 已选择范围

  32.      文件名 C:\Users\Administrator\Desktop\未知艺术家 - 未知标题.wav

  33.      峰值电平 89.1 %
  34.      抓取速度 1.7 X
  35.      范围质量 99.9 %
  36.      复制 CRC 214E2EBD
  37.      复制成功

  38. 没有错误发生


  39. AccurateRip 摘要

  40. 音轨  1  精确地校准抓取  1)  [DBA57CE7]  (AR v2)
  41. 音轨  2  精确地校准抓取  1)  [E9A27AE3]  (AR v2)
  42. 音轨  3  精确地校准抓取  1)  [ACF32A41]  (AR v2)
  43. 音轨  4  精确地校准抓取  1)  [037B9460]  (AR v2)
  44. 音轨  5  精确地校准抓取  1)  [51839EDC]  (AR v2)
  45. 音轨  6  精确地校准抓取  1)  [01A23AEC]  (AR v2)
  46. 音轨  7  精确地校准抓取  1)  [2ED72A8D]  (AR v2)
  47. 音轨  8  精确地校准抓取  1)  [8B722350]  (AR v2)
  48. 音轨  9  精确地校准抓取  1)  [3A4946DB]  (AR v2)
  49. 音轨 10  精确地校准抓取  1)  [4BB9F481]  (AR v2)

  50. 所有音轨精确校准抓取

  51. 状态报告结尾

  52. ---- CUETools DB Plugin V2.1.6

  53. [CTDB TOCID: nwstOlEYMlRl68DoVoIcSE8Mk1Y-] found
  54. Submit result: nwstOlEYMlRl68DoVoIcSE8Mk1Y- has been confirmed
  55. Track | CTDB Status
  56.   1   | (3/3) Accurately ripped
  57.   2   | (3/3) Accurately ripped
  58.   3   | (3/3) Accurately ripped
  59.   4   | (3/3) Accurately ripped
  60.   5   | (3/3) Accurately ripped
  61.   6   | (3/3) Accurately ripped
  62.   7   | (3/3) Accurately ripped
  63.   8   | (3/3) Accurately ripped
  64.   9   | (3/3) Accurately ripped
  65. 10   | (2/3) Accurately ripped

复制代码


链接:链接:https://pan.baidu.com/s/1OrCd76mO0-OmpjswQA0ZXQ  提取码:li83

密码:

本帖子中包含更多资源

您需要 登录 才可以下载或查看,没有帐号?立即注册

x
回复

使用道具 举报

支持发帖哈
回复

使用道具 举报

感谢分享,辛苦辛苦
回复

使用道具 举报

喜欢民谣。
辛苦了,感谢分享。
回复

使用道具 举报

音乐不错,就是太贵
回复

使用道具 举报

返回列表
您需要登录后才可以回帖 登录 | 立即注册

本版积分规则

快速回复 返回顶部 返回列表